2月 262012
 

再生できない動画ファイル(拡張子AVI)がある。AVI ファイルを修復できるソフトウェアがあるらしいので試してみた。

DivFix++は、AVI動画の修復とプレビューを行うソフトウェアです。 ed2k(emule), torrent, gnutella, ftp, web, その他のインターネット上のソースからダウンロードしたファイルの修復/プレビューのための設計されました。現在は、AVIとDivXファイルを修復することができます。(「ダウンロード – DivFix++ – SourceForge.JP」より引用)

ダウンロード

ダウンロード – DivFix++ – SourceForge.JP」からダウンロードして、解凍する。

※DivFix++_v0.34-Win32 を試用した

スポンサードリンク

使い方

起動のしかた

DivFix++.exe を開く。

起動したところ。日本語にも対応している(後述参照)。

使い方

壊れたファイルをドラッグ・アンド・ドロップするなどして指定、Fix をクリックする。が、今回のファイルは対応していないようだった。

参考

参考までに今回のテストファイルは以下のとおり:

General
Complete name                            : C:\Users\Owner\Desktop\xxx.avi
Format                                   : OGG
Format/Info                              : Advanced Video Codec
File size                                : 668 MiB
Duration                                 : 1h 13mn
Overall bit rate mode                    : Variable
Overall bit rate                         : 1 274 Kbps

Video
ID                                       : 0 (0x0)
Format                                   : AVC
Format/Info                              : Advanced Video Codec
Codec ID                                 : h264
Duration                                 : 1h 13mn
Bit rate                                 : 1 151 Kbps
Width                                    : 1 280 pixels
Height                                   : 720 pixels
Display aspect ratio                     : 16:9
Frame rate                               : 29.970 fps
Color space                              : YUV
Chroma subsampling                       : 4:2:0
Bits/(Pixel*Frame)                       : 0.042
Stream size                              : 603 MiB (90%)

Audio
ID                                       : 1 (0x1)
Format                                   : Vorbis
Format settings, Floor                   : 1
Duration                                 : 1h 13mn
Bit rate mode                            : Variable
Bit rate                                 : 64.0 Kbps
Channel(s)                               : 2 channels
Sampling rate                            : 48.0 KHz
Compression mode                         : Lossy
Stream size                              : 33.5 MiB (5%)
Writing library                          : libVorbis 1.0 (UTC 2002-07-17)
Language                                 : (n

日本語化

Preference をクリックする。

Language からJapanese を選択する。

日本語化できた。

公式サイト

参考文献

スポンサードリンク

 返信する

以下のHTML タグと属性が利用できます: <a href="" title=""> <abbr title=""> <acronym title=""> <b> <blockquote cite=""> <cite> <code> <del datetime=""> <em> <i> <q cite=""> <s> <strike> <strong>

(必須)

(必須)